Pihu 2018 Full Movie Download

Pihu 2018 Full Movie Free Download HD.1080p.WEBRip.Hindi.AAC.MoviesMB

Pihu 2018 Full Movie Free Download hd 1080p.WEBRip.Hindi.Direct Link. Pihu 2018 Full Movie free high quality Video For mobile phone or PC.

 

Advertising

Video
ID                                       : 1
Format                                   : AVC
Format/Info                              : Advanced Video Codec
Format profile                           : [email protected]
Format settings                          : CABAC / 5 Ref Frames
Format settings, CABAC                   : Yes
Format settings, RefFrames               : 5 frames
Codec ID                                 : V_MPEG4/ISO/AVC
Duration                                 : 1 h 30 min
Bit rate                                 : 1 800 kb/s
Width                                    : 1 920 pixels
Height                                   : 808 pixels
Display aspect ratio                     : 2.40:1
Frame rate mode                          : Constant
Frame rate                               : 24.000 FPS
Color space                              : YUV
Chroma subsampling                       : 4:2:0
Bit depth                                : 8 bits
Scan type                                : Progressive
Bits/(Pixel*Frame)                       : 0.048
Stream size                              : 1.13 GiB (90%)
Title                                    : MoviesMB
Writing library                          : x264 core 157 r2935 545de2f
Language                                 : Hindi
Default                                  : Yes
Forced                                   : No
Color range                              : Limited
Color primaries                          : Generic film
Transfer characteristics                 : BT.709
Matrix coefficients                      : BT.709

Audio
ID                                       : 2
Format                                   : AAC
Format/Info                              : Advanced Audio Codec
Format profile                           : LC
Codec ID                                 : A_AAC-2
Duration                                 : 1 h 30 min
Bit rate                                 : 192 kb/s
Channel(s)                               : 2 channels
Channel positions                        : Front: L R
Sampling rate                            : 48.0 kHz
Frame rate                               : 46.875 FPS (1024 SPF)
Compression mode                         : Lossy
Delay relative to video                  : 1 ms
Stream size                              : 124 MiB (10%)
Title                                    : MoviesMB
Language                                 : English
Default                                  : Yes
Forced                                   : No

Text
ID                                       : 3
Format                                   : UTF-8
Codec ID                                 : S_TEXT/UTF8
Codec ID/Info                            : UTF-8 Plain Text
Duration                                 : 1 h 20 min
Bit rate                                 : 53 b/s
Count of elements                        : 641
Stream size                              : 31.7 KiB (0%)
Title                                    : MoviesMB
Language                                 : English
Default                                  : Yes
Forced                                   : No

Pihu 2018 Full Movie Free Download HDPihu 2018 Full Movie Free Download HD

Pihu 2018 Full Movie Free Download HDPihu 2018 Full Movie Free Download HD

यदि आपके पास DownloadHDMovie.in वेबसाइट के संबंध में कोई सुझाव और प्रतिक्रिया है तो हमें अवश्य बताएं। हम अपनी साइट को और अनुकूलित करने का प्रयास करेंगे। साइट पूरी तरह से सुरक्षित, तेज़ और उपयोग में आसान है।

Download Torrent Download Direct HDRip

Apr 16, 2019 - Posted by admin - No Comments

Leave a Reply

Your email address will not be published. Required fields are marked *