Criminal Justice 2019 all Episodes Download

Criminal Justice (2019) Hindi – Season 1 (All Episodes) – 720p HDRip – x264 – AC3 – ESubs::RAFI…

Criminal Justice 2019 all Episodes Download free hd Criminal Justice (2019) Hindi – Season 1 (All Episodes Download) – 720p HDRip – x264 – AC3 – ESubs::RAFI

Advertising

General 
Format                                   : Matroska 
Format version                           : Version 4 
File size                                : 1.79 GiB 
Duration                                 : 7 h 50 min 
Overall bit rate                         : 544 kb/s 
Movie name : Criminal Justice (2019) Hindi – Season 1 (All Episodes) – 720p HDRip – x264 – AC3 – ESubs::RAFI::

===================================================================

Video
ID                                       : 1
Format                                   : AVC
Format/Info                              : Advanced Video Codec
Format profile                           : [email protected]
Format settings                          : CABAC / 5 Ref Frames
Format settings, CABAC                   : Yes
Format settings, RefFrames               : 5 frames
Codec ID                                 : V_MPEG4/ISO/AVC
Duration                                 : 7 h 50 min
Bit rate                                 : 350 kb/s
Width                                    : 1 280 pixels
Height                                   : 720 pixels
Display aspect ratio                     : 16:9
Frame rate mode                          : Constant
Frame rate                               : 24.965 FPS
Color space                              : YUV

===================================================================

Audio
ID                                       : 2
Format                                   : AC-3
Format/Info                              : Audio Coding 3
Commercial name                          : Dolby Digital
Codec ID                                 : A_AC3
Duration                                 : 7 h 50 min
Bit rate mode                            : Constant
Bit rate                                 : 192 kb/s
Channel(s)                               : 2 channels
Channel layout                           : L R
Sampling rate                            : 48.0 kHz
Frame rate                               : 31.250 FPS (1536 SPF)
Bit depth                                : 16 bits
Compression mode                         : Lossy
Delay relative to video                  : 9 ms
Stream size                              : 646 MiB (35%)
Title                                    : Sun George
Language                                 : Hindi
Service kind                             : Complete Main
Default                                  : Yes
Forced                                   : No

Text
ID                                       : 3
Format                                   : UTF-8
Codec ID                                 : S_TEXT/UTF8
Codec ID/Info                            : UTF-8 Plain Text
Duration                                 : 7 h 49 min
Bit rate                                 : 54 b/s
Count of elements                        : 6092
Stream size                              : 187 KiB (0%)
Title                                    : Sun George
Language                                 : English
Default                                  : Yes
Forced                                   : Yes

Stroyline:

Sex, drugs and a gruesome murder. An edgy one night stand turns into a nightmare for Aditya, when he wakes up with blood on his hands. The evidence is stacked against him, but he doesn’t remember the grisly crime. Is he guilty or not ?


SCERNSHOTS
==================================================

Criminal Justice 2019 all Episodes Download    Criminal Justice 2019 all Episodes Download  Criminal Justice 2019 all Episodes Download  Criminal Justice 2019 all Episodes Download  Criminal Justice 2019 all Episodes Download  Criminal Justice 2019 all Episodes Download  Criminal Justice 2019 all Episodes Download

Download Torrent Download Magnet File

Apr 14, 2019 - Posted by admin - No Comments

Leave a Reply

Your email address will not be published. Required fields are marked *