Badla 2019 – Download HD Movie

Badla 2019 – Download HD Movie

Badla 2019 Download HD Movie A dynamic young entrepreneur finds herself locked in a hotel room with the corpse of her dead lover. She hires a prestigious lawyer to defend her and they work together to figure out what actually happened.

Badla 2019 Download HD Movie

Storyline

A dynamic young entrepreneur finds herself locked in a hotel room with the corpse of her dead lover. She hires a prestigious lawyer to defend her and they work together to figure out what actually happened.

Advertising

Details

Badla (2019) Hindi Movie – HQ DVDSc
[Mp4 – AAC3(5.1Ch)] – 850 MB   

General

Format                                   : MPEG-4
Format profile                           : Base Media
Codec ID                                 : isom (isom)
File size                                : 850 MiB
Duration                                 : 2 h 13 min

Video
ID                                       : 1
Format                                   : AVC
Format/Info                              : Advanced Video Codec
Format profile                           : [email protected]
Format settings                          : CABAC / 4 Ref Frames
Format settings, CABAC                   : Yes
Format settings, RefFrames               : 4 frames
Codec ID                                 : avc1
Codec ID/Info                            : Advanced Video Coding
Duration                                 : 2 h 13 min
Bit rate                                 : 757 kb/s
Maximum bit rate                         : 2 868 kb/s
Width                                    : 720 pixels
Height                                   : 304 pixels
Display aspect ratio                     : 2.35:1
Frame rate mode                          : Constant
Frame rate                               : 25.000 FPS
Color space                              : YUV
Chroma subsampling                       : 4:2:0
Bit depth                                : 8 bits
Scan type                                : Progressive
Bits/(Pixel*Frame)                       : 0.138
Stream size                              : 725 MiB (85%)

Audio
ID                                       : 2
Format                                   : AAC LC SBR
Commercial name                          : HE-AAC
Format settings                          : Explicit
Codec ID                                 : mp4a-40-2
Duration                                 : 2 h 13 min
Bit rate mode                            : Variable
Bit rate                                 : 128 kb/s
Maximum bit rate                         : 138 kb/s
Channel(s)                               : 6 channels
Channel layout                           : C L R Ls Rs LFE
Sampling rate                            : 48.0 kHz
Stream size                              : 122 MiB (14%)

Badla 2019 - Download HD Movie

Badla 2019 - Download HD Movie
Badla 2019 - Download HD Movie
Category: Movies > Bollywood
Lang: Hindi
Total Size: 850.37 MB
Info Hash: a8b4f1e1691f03452eebb2dde5353a598c56eb9c
Added By: CyberTron
Date Added: 23-03-2019 18:28:17
Download Torrent Download Direct Link

Mar 26, 2019 - Posted by admin - No Comments

Leave a Reply

Your email address will not be published. Required fields are marked *